<?xml version="1.0" standalone="no"?>
<!DOCTYPE svg PUBLIC "-//W3C//DTD SVG 1.1//EN" "http://www.w3.org/Graphics/SVG/1.1/DTD/svg11.dtd" >
<svg xmlns="http://www.w3.org/2000/svg">
<metadata>Generated by IcoMoon</metadata>
<defs>
<font id="icomoon" horiz-adv-x="512">
<font-face units-per-em="512" ascent="480" descent="-32" />
<missing-glyph horiz-adv-x="512" />
<glyph unicode="&#x20;" d="" horiz-adv-x="256" />
<glyph unicode="&#xe600;" d="M256 469.334c135.274 0 245.333-110.059 245.333-245.334s-110.058-245.333-245.333-245.333-245.333 110.058-245.333 245.333 110.058 245.333 245.333 245.333zM256 480c-141.387 0-256-114.613-256-256s114.614-256 256-256 256 114.613 256 256-114.613 256-256 256v0zM384 266.667v85.333h-256v-85.333h21.334v-85.334h-21.334v-85.334h256v85.334h-21.334v85.334h21.334zM138.667 277.333v64h234.667v-64h-234.667zM373.334 170.666v-64h-234.667v64h234.667zM352 181.334h-192v85.334h192v-85.334zM181.333 245.333h53.333v-10.667h-53.334v10.666zM181.333 213.334h138.667v-10.666h-138.667v10.666zM160 320h20.672v-20.672h-20.672v20.672zM160 149.334h20.672v-20.672h-20.672v20.672z" />
<glyph unicode="&#xe601;" d="M0 480h224v-512h-224v512zM288 480h32v-96h-32v96zM480 480h32v-96h-32v96zM320 480h64v-32h-64v32zM416 480h64v-32h-64v32zM480 192h32v-128h-32v128zM480 352h32v-128h-32v128zM288 32h32v-32h-32v32zM480 32h32v-32h-32v32zM288 352h32v-128h-32v128zM288 192h32v-128h-32v128zM288 0h96v-32h-96v32zM416 0h96v-32h-96v32z" />
<glyph unicode="&#xe602;" d="M0 480h512v-224h-512v224zM416 192h96v-32h-96v32zM416 0h96v-32h-96v32zM480 160h32v-64h-32v64zM480 64h32v-64h-32v64zM96 0h128v-32h-128v32zM256 0h128v-32h-128v32zM32 192h32v-32h-32v32zM32 0h32v-32h-32v32zM256 192h128v-32h-128v32zM96 192h128v-32h-128v32zM0 192h32v-96h-32v96zM0 64h32v-96h-32v96z" />
<glyph unicode="&#xe603;" d="M256 469.334c135.274 0 245.333-110.059 245.333-245.334s-110.058-245.333-245.333-245.333-245.333 110.058-245.333 245.333 110.058 245.333 245.333 245.333zM256 480c-141.387 0-256-114.613-256-256s114.614-256 256-256 256 114.613 256 256-114.613 256-256 256v0zM256 386.656l-149.333-258.656h298.666l-149.333 258.656zM256 365.322l130.858-226.656h-261.717l130.858 226.656zM245.333 298.667h21.333v-96h-21.334v96zM245.333 181.334h21.333v-21.334h-21.334v21.334z" />
<glyph unicode="&#xe604;" d="M224 480h32v-96h-32v96zM224 256h32v-288h-32v288zM320 384v-96h-160v96h160zM352 416h-224v-160h224v160zM32 192h416v-160h-416v160z" />
<glyph unicode="&#xe605;" d="M0 480h32v-512h-32v512zM288 384v-96h-160v96h160zM320 416h-224v-160h224v160zM96 192h416v-160h-416v160z" />
<glyph unicode="&#xe606;" d="M480 480h32v-512h-32v512zM384 384v-96h-160v96h160zM416 416h-224v-160h224v160zM0 192h416v-160h-416v160z" />
<glyph unicode="&#xe607;" d="M256 469.334c135.274 0 245.333-110.059 245.333-245.334s-110.058-245.333-245.333-245.333-245.333 110.058-245.333 245.333 110.058 245.333 245.333 245.333zM256 480c-141.387 0-256-114.613-256-256s114.614-256 256-256 256 114.613 256 256-114.613 256-256 256v0zM202.667 291.765v-125.152c-7.819 8.95-19.179 14.72-32 14.72-23.563 0-42.667-19.104-42.667-42.666s19.104-42.666 42.666-42.666 42.666 19.104 42.666 42.666v104.597l138.667 46.23v-80.214c-7.818 8.95-19.178 14.72-32 14.72-23.563 0-42.666-19.104-42.666-42.667s19.104-42.666 42.666-42.666 42.666 19.104 42.666 42.666v167.563l-160-57.13zM170.667 106.666c-17.643 0-32 14.358-32 32s14.357 32 32 32 32-14.358 32-32c0-17.642-14.357-32-32-32zM320 149.334c-17.642 0-32 14.358-32 32s14.358 32 32 32 32-14.358 32-32c0-17.642-14.358-32-32-32zM213.333 254.506v29.728l138.667 49.525v-33.034l-138.667-46.219z" />
<glyph unicode="&#xe608;" d="M256 469.334c135.274 0 245.333-110.059 245.333-245.334s-110.058-245.333-245.333-245.333-245.333 110.058-245.333 245.333 110.058 245.333 245.333 245.333zM256 480c-141.387 0-256-114.613-256-256s114.614-256 256-256 256 114.613 256 256-114.613 256-256 256v0zM368 160h-224c-8.822 0-16 7.178-16 16v96c0 8.822 7.178 16 16 16h224c8.822 0 16-7.178 16-16v-96c0-8.822-7.178-16-16-16zM144 277.333c-2.944 0-5.333-2.389-5.333-5.333v-96c0-2.933 2.389-5.334 5.333-5.334h224c2.933 0 5.334 2.4 5.334 5.334v96c0 2.944-2.4 5.333-5.334 5.333h-224zM170.667 245.333h170.667v-42.667h-170.667v42.666z" />
<glyph unicode="&#xe609;" d="M256 469.334c135.274 0 245.333-110.059 245.333-245.334s-110.058-245.333-245.333-245.333-245.333 110.058-245.333 245.333 110.058 245.333 245.333 245.333zM256 480c-141.387 0-256-114.613-256-256s114.614-256 256-256 256 114.613 256 256-114.613 256-256 256v0zM389.334 288h-266.666c-8.822 0-16-7.178-16-16v-96c0-8.822 7.178-16 16-16h266.666c8.822 0 16 7.178 16 16v96c0 8.822-7.178 16-16 16zM122.666 170.666c-2.944 0-5.334 2.4-5.334 5.334v96c0 2.944 2.389 5.333 5.334 5.333h80v-106.666h-80zM213.333 170.666v106.666h85.333v-106.666h-85.334zM394.666 176c0-2.933-2.4-5.334-5.334-5.334h-80v106.666h80c2.933 0 5.334-2.389 5.334-5.333v-96zM149.333 245.333h21.333v-42.667h-21.334v42.666zM245.333 245.333h21.333v-42.667h-21.334v42.666zM341.334 245.333h21.334v-42.667h-21.334v42.666z" />
<glyph unicode="&#xe60a;" d="M256 469.334c135.274 0 245.333-110.059 245.333-245.334s-110.058-245.333-245.333-245.333-245.333 110.058-245.333 245.333 110.058 245.333 245.333 245.333zM256 480c-141.387 0-256-114.613-256-256s114.614-256 256-256 256 114.613 256 256-114.613 256-256 256v0zM99.616 262.197l-38.208-38.197 0.192-0.182 7.349-7.36 30.496-30.496 7.541 7.541-30.486 30.496 30.656 30.656zM413.803 262.624l-7.552-7.542 31.082-31.082-29.611-29.611 7.552-7.541 37.142 37.152zM234.197 170.966l-48.714 18.678-25.483-61.642h192l-39.702 129.558zM239.114 262.89c0-14.362-11.643-26.005-26.006-26.005s-26.006 11.643-26.006 26.005c0 14.363 11.643 26.006 26.006 26.006s26.006-11.643 26.006-26.006zM128 96h256v245.333h-256v-245.333zM138.667 330.667h234.667v-224h-234.667v224z" />
<glyph unicode="&#xe60b;" d="M256 469.334c135.274 0 245.333-110.059 245.333-245.334s-110.058-245.333-245.333-245.333-245.333 110.058-245.333 245.333 110.058 245.333 245.333 245.333zM256 480c-141.387 0-256-114.613-256-256s114.614-256 256-256 256 114.613 256 256-114.613 256-256 256v0zM352 96h-192v256h192v-256zM170.667 106.666h170.667v234.666h-170.667v-234.666zM309.334 309.333v-10.666h-106.666v10.666h106.666zM320 320h-128v-32h128v32zM256 256v-21.334h-53.334v21.334h53.334zM266.666 266.667h-74.666v-42.667h74.666v42.666zM309.334 256v-117.334h-10.666v117.334h10.666zM320 266.667h-32v-138.667h32v138.667zM256 192v-53.334h-53.334v53.334h53.334zM266.666 202.666h-74.666v-74.666h74.666v74.666z" />
<glyph unicode="&#xe60c;" d="M256 469.334c135.274 0 245.333-110.059 245.333-245.334s-110.058-245.333-245.333-245.333-245.333 110.058-245.333 245.333 110.058 245.333 245.333 245.333zM256 480c-141.387 0-256-114.613-256-256s114.614-256 256-256 256 114.613 256 256-114.613 256-256 256v0zM213.333 298.667h149.333v-10.667h-149.333v10.666zM213.333 224h149.333v-10.666h-149.333v10.666zM213.333 149.334h149.333v-10.666h-149.333v10.666zM149.333 309.333h32v-32h-32v32zM149.333 234.667h32v-32h-32v32zM149.333 160h32v-32h-32v32z" />
<glyph unicode="&#xe60d;" d="M256 469.334c135.274 0 245.333-110.059 245.333-245.334s-110.058-245.333-245.333-245.333-245.333 110.058-245.333 245.333 110.058 245.333 245.333 245.333zM256 480c-141.387 0-256-114.613-256-256s114.614-256 256-256 256 114.613 256 256-114.613 256-256 256v0zM128 234.667h32v-10.667h-32v10.666zM181.333 234.667h32v-10.667h-32v10.666zM234.667 234.667h42.667v-10.667h-42.666v10.666zM298.666 234.667h32v-10.667h-32v10.666zM352 234.667h32v-10.667h-32v10.666zM341.334 266.667h-170.667v85.333h10.667v-74.666h149.334v74.666h10.666zM341.334 106.666h-10.666v74.666h-149.333v-74.666h-10.667v85.334h170.667z" />
<glyph unicode="&#xe60e;" d="M256 469.334c135.274 0 245.333-110.059 245.333-245.334s-110.058-245.333-245.333-245.333-245.333 110.058-245.333 245.333 110.058 245.333 245.333 245.333zM256 480c-141.387 0-256-114.613-256-256s114.614-256 256-256 256 114.613 256 256-114.613 256-256 256v0zM318.666 342.283l-37.269-23.19c1.408-3.349 2.528-6.837 3.498-10.389l33.77 21.014 54.666-34.016v-178.763l-55.339 38.912-60.672-42.666-60.672 42.666-55.19-38.816 1.258 91.008c-3.722 5.088-7.232 10.646-10.432 16.726l-1.781-128.48 66.144 46.517 60.672-42.666 60.672 42.666 66.005-46.411v205.238l-65.334 40.651zM202.667 355.552c-38.23 0-69.333-31.104-69.333-69.334 0-73.13 63.669-116.416 66.379-118.219l2.954-1.962 2.954 1.974c2.709 1.803 66.379 45.088 66.379 118.219 0 38.219-31.104 69.322-69.334 69.322zM202.667 261.333c-14.698 0-26.667 11.968-26.667 26.667s11.968 26.666 26.666 26.666 26.666-11.968 26.666-26.666-11.968-26.666-26.666-26.666z" />
<glyph unicode="&#xe60f;" d="M256 469.334c135.274 0 245.333-110.059 245.333-245.334s-110.058-245.333-245.333-245.333-245.333 110.058-245.333 245.333 110.058 245.333 245.333 245.333zM256 480c-141.387 0-256-114.613-256-256s114.614-256 256-256 256 114.613 256 256-114.613 256-256 256v0zM150.176 342.4v-51.402h70.304v51.402h11.274v-118.4h-11.274v57.376h-70.304v-57.376h-11.274v118.4h11.274zM256 341.333h117.334v-10.666h-117.334v10.666zM256 288h117.334v-10.666h-117.334v10.666zM256 234.667h117.334v-10.667h-117.334v10.666zM138.667 181.334h234.667v-10.666h-234.667v10.666zM138.667 128h234.667v-10.666h-234.667v10.666z" />
<glyph unicode="&#xe610;" d="M256 469.334c135.274 0 245.333-110.059 245.333-245.334s-110.058-245.333-245.333-245.333-245.333 110.058-245.333 245.333 110.058 245.333 245.333 245.333zM256 480c-141.387 0-256-114.613-256-256s114.614-256 256-256 256 114.613 256 256-114.613 256-256 256v0zM312.298 257.558l-78.101-87.925-48.714 19.349-25.483-60.981h192zM239.114 262.89c0-14.362-11.643-26.005-26.006-26.005s-26.006 11.643-26.006 26.005c0 14.363 11.643 26.006 26.006 26.006s26.006-11.643 26.006-26.006zM128 341.333v-245.333h256v245.333h-256zM373.334 106.666h-234.667v224h234.667v-224z" />
<glyph unicode="&#xe611;" d="M256 469.334c135.274 0 245.333-110.059 245.333-245.334s-110.058-245.333-245.333-245.333-245.333 110.058-245.333 245.333 110.058 245.333 245.333 245.333zM256 480c-141.387 0-256-114.613-256-256s114.614-256 256-256 256 114.613 256 256-114.613 256-256 256v0zM213.333 298.667h149.333v-10.667h-149.333v10.666zM213.333 224h149.333v-10.666h-149.333v10.666zM213.333 149.334h149.333v-10.666h-149.333v10.666zM149.333 309.333h32v-32h-32v32zM149.333 234.667h32v-32h-32v32zM149.333 160h32v-32h-32v32z" />
<glyph unicode="&#xe612;" d="M256 469.334c135.274 0 245.333-110.059 245.333-245.334s-110.058-245.333-245.333-245.333-245.333 110.058-245.333 245.333 110.058 245.333 245.333 245.333zM256 480c-141.387 0-256-114.613-256-256s114.614-256 256-256 256 114.613 256 256-114.613 256-256 256v0zM330.666 341.333v-234.666h-149.333v234.666h149.333zM341.334 352h-170.667v-256h170.667v256zM405.334 138.666h-42.666v10.666h32v138.667h-32v10.666h42.666zM149.333 138.666h-42.666v160h42.666v-10.666h-32v-138.667h32zM250.549 156.875v17.248c-9.899 0.171-20.149 3.232-26.123 7.498l4.096 11.435c6.144-4.086 15.018-7.339 24.587-7.339 12.128 0 20.32 6.998 20.32 16.726 0 9.397-6.666 15.19-19.296 20.32-17.418 6.838-28.171 14.688-28.171 29.547 0 14.166 10.070 24.928 25.781 27.488v17.237h10.582v-16.565c10.25-0.341 17.248-3.072 22.197-5.974l-4.267-11.274c-3.584 2.038-10.582 5.803-21.514 5.803-13.142 0-18.101-7.851-18.101-14.688 0-8.875 6.315-13.312 21.173-19.456 17.579-7.168 26.464-16.054 26.464-31.254 0-13.483-9.397-26.101-26.976-29.024v-17.75h-10.752z" />
<glyph unicode="&#xe613;" d="M256 469.334c135.274 0 245.333-110.059 245.333-245.334s-110.058-245.333-245.333-245.333-245.333 110.058-245.333 245.333 110.058 245.333 245.333 245.333zM256 480c-141.387 0-256-114.613-256-256s114.614-256 256-256 256 114.613 256 256-114.613 256-256 256v0zM128 341.333v-64h256v64h-256zM373.334 288h-170.667v42.666h170.667v-42.666zM128 192h256v64h-256v-64zM373.334 245.333v-42.667h-42.666v42.666h42.666zM128 106.666h256v64h-256v-64zM373.334 160v-42.666h-85.334v42.666h85.334z" />
<glyph unicode="&#xe614;" d="M256 469.334c135.274 0 245.333-110.059 245.333-245.334s-110.058-245.333-245.333-245.333-245.333 110.058-245.333 245.333 110.058 245.333 245.333 245.333zM256 480c-141.387 0-256-114.613-256-256s114.614-256 256-256 256 114.613 256 256-114.613 256-256 256v0zM362.144 328.267c-28.896 28.896-67.659 42.582-105.824 42.582-38.742 0-76.885-14.101-103.478-40.694l0.192-0.192c-59.691-60.426-62.571-151.744-7.542-210.816l-0.192-0.192c0.65-0.651 1.355-1.184 2.016-1.824 0.608-0.63 1.131-1.322 1.76-1.952l0.192 0.192c29.558-27.627 66.72-41.355 103.733-41.355 38.72 0 77.195 14.848 106.326 43.99 58.219 58.24 61.046 152.032 2.816 210.262zM183.915 300.587l-0.107 0.106c19.050 18.603 45.696 28.555 72.779 28.555 26.762 0 53.909-9.685 74.442-30.208 41.589-41.589 38.762-110.197-2.827-151.798-20.779-20.779-47.627-31.627-74.944-31.627-26.538 0-53.472 10.336-75.744 31.637-40.32 42.336-37.77 109.152 6.4 153.333zM351.776 125.558c-26.358-26.358-61.44-40.864-98.784-40.864-34.090 0-66.496 12.192-92.331 34.538l15.114 15.115c22.304-19.019 49.462-29.387 77.493-29.387 30.784 0 60.075 12.341 82.486 34.752 46.784 46.784 48.053 121.654 2.827 166.88-21.493 21.493-50.613 33.334-81.984 33.334-27.178 0-53.28-9.099-73.184-25.248l-15.125 15.125c23.36 19.413 54.858 30.378 88.042 30.378 37.942 0 72.842-14.016 98.283-39.456 25.92-25.92 39.818-60.502 39.136-97.387-0.693-36.683-15.594-71.403-41.974-97.781zM202.954 246.272c0 3.157 0.597 6.101 1.792 8.832s2.816 5.12 4.864 7.168 4.438 3.67 7.168 4.864c2.731 1.195 5.674 1.792 8.832 1.792s6.101-0.597 8.832-1.792c2.731-1.194 5.12-2.816 7.168-4.864 2.037-2.048 3.669-4.438 4.864-7.168 1.184-2.731 1.792-5.674 1.792-8.832s-0.608-6.101-1.792-8.832c-1.195-2.731-2.827-5.12-4.864-7.168-2.048-2.048-4.448-3.669-7.168-4.864-2.731-1.195-5.674-1.792-8.832-1.792s-6.101 0.597-8.832 1.792c-2.731 1.195-5.12 2.816-7.168 4.864s-3.669 4.438-4.864 7.168c-1.195 2.731-1.792 5.674-1.792 8.832zM212.939 246.272c0-3.584 1.216-6.592 3.648-9.024s5.44-3.648 9.024-3.648 6.592 1.216 9.024 3.648 3.648 5.44 3.648 9.024-1.216 6.592-3.648 9.024-5.44 3.648-9.024 3.648-6.592-1.216-9.024-3.648-3.648-5.44-3.648-9.024zM228.298 172.032l-7.68 3.968 56.96 94.72 7.68-3.968-56.96-94.72zM257.238 196.352c0 3.158 0.598 6.101 1.792 8.832 1.184 2.731 2.816 5.11 4.864 7.168 2.038 2.048 4.438 3.67 7.158 4.864 2.731 1.195 5.675 1.792 8.832 1.792s6.091-0.598 8.832-1.792c2.731-1.195 5.11-2.816 7.168-4.864 2.038-2.048 3.67-4.438 4.864-7.168 1.184-2.731 1.792-5.675 1.792-8.832 0-3.168-0.608-6.101-1.792-8.832-1.195-2.731-2.827-5.12-4.864-7.168-2.048-2.048-4.438-3.67-7.168-4.864-2.741-1.195-5.675-1.792-8.832-1.792s-6.101 0.598-8.832 1.792-5.12 2.816-7.158 4.864c-2.048 2.038-3.68 4.438-4.864 7.168-1.205 2.731-1.792 5.664-1.792 8.832zM267.211 196.352c0-3.584 1.216-6.592 3.648-9.024 2.442-2.442 5.45-3.648 9.034-3.648s6.592 1.205 9.024 3.648c2.442 2.432 3.648 5.44 3.648 9.024s-1.205 6.582-3.648 9.024c-2.432 2.442-5.44 3.648-9.024 3.648s-6.592-1.205-9.034-3.648c-2.432-2.442-3.648-5.44-3.648-9.024z" />
<glyph unicode="&#xe615;" d="M256 469.334c135.274 0 245.333-110.059 245.333-245.334s-110.058-245.333-245.333-245.333-245.333 110.058-245.333 245.333 110.058 245.333 245.333 245.333zM256 480c-141.387 0-256-114.613-256-256s114.614-256 256-256 256 114.613 256 256-114.613 256-256 256v0zM346.219 275.595l-35.221-9.963-69.792 55.178c-3.499 5.642-9.184 9.91-16.224 11.243-1.547 0.298-3.094 0.438-4.619 0.438-11.552 0-21.856-8.202-24.096-19.968-0.341-1.814-0.448-3.606-0.384-5.365l-35.19-84.022-30.026-8.49 29.024-102.645 215.552 60.96-29.024 102.635zM220.374 321.824c0.875 0 1.75-0.085 2.624-0.245 7.52-1.43 12.48-8.714 11.050-16.234-1.248-6.55-6.976-11.296-13.621-11.296-0.875 0-1.75 0.086-2.624 0.245-5.845 1.11-10.037 5.771-10.987 11.317l0.149 0.363-0.16 0.064c-0.202 1.472-0.341 2.966-0.054 4.501 1.248 6.538 6.976 11.286 13.621 11.286zM201.355 292.597c3.53-4.384 8.49-7.648 14.442-8.789 1.547-0.298 3.094-0.438 4.619-0.438 11.563 0 21.856 8.202 24.096 19.968 0.075 0.394 0.054 0.779 0.107 1.173l53.706-42.464-124.501-35.211 27.53 65.76zM143.84 207.286l195.030 55.147 23.221-82.112-195.018-55.147-23.232 82.112zM283.086 224.496l2.901-10.253-71.844-20.325-2.9 10.253 71.845 20.325zM192.068 154.418l-2.899 10.255 133.439 37.731 2.899-10.255-133.439-37.731z" />
<glyph unicode="&#xe616;" d="M256 469.334c135.274 0 245.333-110.059 245.333-245.334s-110.058-245.333-245.333-245.333-245.333 110.058-245.333 245.333 110.058 245.333 245.333 245.333zM256 480c-141.387 0-256-114.613-256-256s114.614-256 256-256 256 114.613 256 256-114.613 256-256 256v0zM352 181.334h-10.666v-53.334h10.666v21.334h32v10.666h-32zM373.334 106.666h-32v-10.666h42.666v32h-10.666zM266.666 149.334h10.666v-32h-10.666v32zM309.334 128h-10.666v-21.334h-10.666v-10.666h32v10.666h-10.666zM128 234.667h117.334v117.333h-117.334v-117.333zM138.667 341.333h96v-96h-96v96zM266.666 352v-117.334h117.334v117.334h-117.334zM373.334 245.333h-96v96h96v-96zM160 181.334h53.334v-53.334h-53.334v53.334zM160 320h53.334v-53.334h-53.334v53.334zM298.666 320h53.334v-53.334h-53.334v53.334zM128 96h117.334v117.334h-117.334v-117.334zM138.667 202.666h96v-96h-96v96zM277.334 181.334v32h-10.666v-42.666h42.666v-21.334h10.666v32h-10.666zM298.666 213.334v-10.666h74.666v-21.334h10.666v32h-10.666z" />
<glyph unicode="&#xe617;" d="M256 469.334c135.274 0 245.333-110.059 245.333-245.334s-110.058-245.333-245.333-245.333-245.333 110.058-245.333 245.333 110.058 245.333 245.333 245.333zM256 480c-141.387 0-256-114.613-256-256s114.614-256 256-256 256 114.613 256 256-114.613 256-256 256v0zM384 106.666h-256v234.666h106.666v-85.333h149.334v-149.333zM138.667 117.334h234.667v128h-149.333v85.334h-85.333v-213.333zM309.334 266.667h-53.334v64h53.334v-64zM266.666 277.333h32v42.667h-32v-42.666zM384 266.667h-53.334v64h53.334v-64zM341.334 277.333h32v42.667h-32v-42.666z" />
<glyph unicode="&#xe618;" d="M448 96v-64h-384v64h384zM512 160h-512v-192h512v192zM0 288h512v-32h-512v32zM0 352h512v-32h-512v32zM0 416h512v-32h-512v32zM0 480h512v-32h-512v32zM0 224h512v-32h-512v32z" />
<glyph unicode="&#xe619;" d="M256 469.334c135.274 0 245.333-110.059 245.333-245.334s-110.058-245.333-245.333-245.333-245.333 110.058-245.333 245.333 110.058 245.333 245.333 245.333zM256 480c-141.387 0-256-114.613-256-256s114.614-256 256-256 256 114.613 256 256-114.613 256-256 256v0zM298.666 341.333h-160v-234.666h234.666v234.666h-74.666zM288 330.667v-64h-64v64h64zM288 256v-64h-64v64h64zM149.333 330.667h64v-64h-64v64zM149.333 256h64v-64h-64v64zM149.333 117.334v64h64v-64h-64zM224 117.334v64h64v-64h-64zM362.666 117.334h-64v64h64v-64zM362.666 192h-64v64h64v-64zM298.666 266.667v64h64v-64h-64z" />
<glyph unicode="&#xe61a;" d="M128 416v-384h-64v384h64zM192 480h-192v-512h192v512zM288 480h32v-512h-32v512zM352 480h32v-512h-32v512zM416 480h32v-512h-32v512zM480 480h32v-512h-32v512zM224 480h32v-512h-32v512z" />
<glyph unicode="&#xe61b;" d="M448 416v-384h-64v384h64zM512 480h-192v-512h192v512zM192 480h32v-512h-32v512zM128 480h32v-512h-32v512zM64 480h32v-512h-32v512zM0 480h32v-512h-32v512zM256 480h32v-512h-32v512z" />
<glyph unicode="&#xe61c;" d="M448 416v-64h-384v64h384zM512 480h-512v-192h512v192zM0 192h512v-32h-512v32zM0 128h512v-32h-512v32zM0 64h512v-32h-512v32zM0 0h512v-32h-512v32zM0 256h512v-32h-512v32z" />
<glyph unicode="&#xe61d;" d="M256 469.334c135.274 0 245.333-110.059 245.333-245.334s-110.058-245.333-245.333-245.333-245.333 110.058-245.333 245.333 110.058 245.333 245.333 245.333zM256 480c-141.387 0-256-114.613-256-256s114.614-256 256-256 256 114.613 256 256-114.613 256-256 256v0zM320 288h10.666v-10.666h-10.666v10.666zM277.334 288h10.666v-10.666h-10.666v10.666zM181.333 352v-41.909c3.466 1.226 6.998 2.282 10.667 3.018v28.224h181.333v-168.458l-51.136 51.125h-36.981c-0.555-3.637-1.301-7.211-2.336-10.666h34.912l66.208-66.208v204.875h-202.667zM248.181 195.563c-2.667-2.678-5.589-5.088-8.726-7.19 19.946-11.531 33.429-33.056 33.429-57.707 0-10.101-27.381-21.365-66.666-21.365s-66.666 11.264-66.666 21.365c0 25.28 14.144 47.317 34.944 58.624-3.061 2.176-5.877 4.64-8.459 7.36-22.25-13.579-37.152-38.005-37.152-65.984 0-21.355 38.666-32.032 77.334-32.032s77.334 10.678 77.334 32.032c0 27.232-14.101 51.125-35.37 64.896zM207.552 282.667c25.728 0 46.667-20.939 46.667-46.667s-20.939-46.666-46.666-46.666-46.666 20.938-46.666 46.666 20.939 46.666 46.666 46.666zM207.552 293.333c-31.669 0-57.333-25.664-57.333-57.333s25.664-57.334 57.334-57.334 57.334 25.664 57.334 57.334-25.664 57.334-57.334 57.334v0z" />
<glyph unicode="&#xe61e;" d="M256 469.334c135.274 0 245.333-110.059 245.333-245.334s-110.058-245.333-245.333-245.333-245.333 110.058-245.333 245.333 110.058 245.333 245.333 245.333zM256 480c-141.387 0-256-114.613-256-256s114.614-256 256-256 256 114.613 256 256-114.613 256-256 256v0zM199.061 342.187l46.432-118.4h-12.107l-14.432 36.81h-53.888l-14.262-36.81h-11.936l47.584 118.4h12.608zM215.136 270.219l-22.88 60.683-23.712-60.683h46.592zM234.667 341.333h138.667v-10.666h-138.667v10.666zM256 288h117.334v-10.666h-117.334v10.666zM277.334 234.667h96v-10.667h-96v10.666zM138.667 181.334h234.667v-10.666h-234.667v10.666zM138.667 128h234.667v-10.666h-234.667v10.666z" />
<glyph unicode="&#xe61f;" d="M256 469.334c135.274 0 245.333-110.059 245.333-245.334s-110.058-245.333-245.333-245.333-245.333 110.058-245.333 245.333 110.058 245.333 245.333 245.333zM256 480c-141.387 0-256-114.613-256-256s114.614-256 256-256 256 114.613 256 256-114.613 256-256 256v0zM256 94.24l-42.891 65.76h-85.109v170.667h256v-170.667h-85.11l-42.891-65.76zM138.667 170.666h80.224l37.109-56.906 37.11 56.906h80.224v149.334h-234.667v-149.334zM181.333 277.333h149.333v-10.666h-149.333v10.666zM181.333 224h149.333v-10.666h-149.333v10.666z" />
<glyph unicode="&#xe620;" d="M256 469.334c135.274 0 245.333-110.059 245.333-245.334s-110.058-245.333-245.333-245.333-245.333 110.058-245.333 245.333 110.058 245.333 245.333 245.333zM256 480c-141.387 0-256-114.613-256-256s114.614-256 256-256 256 114.613 256 256-114.613 256-256 256v0zM128 352v-256h256v256h-256zM373.334 106.666h-234.667v181.334h234.667v-181.334zM138.667 298.667v42.666h234.667v-42.666h-234.667zM301.526 194.666l-77.525 44.757v-89.514zM161.552 308.685l-7.542 7.542 15.085 15.085 7.542-7.543-15.085-15.085zM204.219 308.683l-7.542 7.543 15.085 15.085 7.542-7.542-15.085-15.085zM246.885 308.682l-7.542 7.542 15.085 15.085 7.543-7.542-15.085-15.085zM289.55 308.679l-7.543 7.543 15.085 15.085 7.543-7.543-15.085-15.085zM324.68 316.235l15.085 15.085 7.543-7.542-15.085-15.085-7.543 7.543z" />
<glyph unicode="&#xe621;" d="M256 469.334c135.274 0 245.333-110.059 245.333-245.334s-110.058-245.333-245.333-245.333-245.333 110.058-245.333 245.333 110.058 245.333 245.333 245.333zM256 480c-141.387 0-256-114.613-256-256s114.614-256 256-256 256 114.613 256 256-114.613 256-256 256v0zM247.637 373.334c5.578 0 11.147 0 16.726 0 0.853-0.203 1.696-0.534 2.56-0.598 27.307-1.952 52.288-10.698 74.517-26.582 34.603-24.704 55.424-58.165 62.070-100.277 0.704-4.49 1.216-9.013 1.813-13.525 0-5.578 0-11.146 0-16.725-0.214-0.96-0.544-1.899-0.608-2.87-1.707-23.498-8.48-45.472-20.885-65.472-24.544-39.584-59.861-63.339-105.952-70.805-4.48-0.726-9.002-1.216-13.514-1.824-5.579 0-11.147 0-16.726 0-0.853 0.202-1.696 0.534-2.56 0.598-27.306 1.952-52.288 10.699-74.517 26.582-34.602 24.714-55.424 58.166-62.070 100.278-0.704 4.49-1.216 9.014-1.824 13.526 0 5.579 0 11.147 0 16.726 0.203 0.853 0.534 1.707 0.597 2.571 1.952 27.306 10.698 52.288 26.581 74.518 24.715 34.602 58.166 55.424 100.278 62.058 4.49 0.715 9.013 1.227 13.514 1.824zM222.475 141.568c0.619 1.334 0.906 1.824 1.088 2.346 9.334 27.99 18.666 55.968 27.925 83.978 0.363 1.109 0.288 2.582-0.118 3.69-6.389 17.76-12.896 35.477-19.296 53.238-0.64 1.792-1.643 2.442-3.466 2.56-4.064 0.267-8.138 0.619-12.171 1.173-2.944 0.405-4.48 2.613-4.256 5.494 0.234 2.89 2.112 4.917 4.906 5.056 1.578 0.075 3.179-0.192 4.768-0.234 14.411-0.363 28.832-0.939 43.243-0.992 8.043-0.032 16.086 0.886 24.139 1.226 3.094 0.128 5.173-1.877 5.44-4.768 0.277-2.955-1.344-5.173-4.363-5.792-1.354-0.278-2.752-0.394-4.139-0.523-3.818-0.352-7.637-0.672-11.851-1.034 16.192-48.16 32.234-95.882 48.288-143.595 0.822 0.534 0.981 0.896 1.099 1.269 6.827 22.837 13.728 45.654 20.426 68.534 3.733 12.746 4.043 25.685-0.896 38.090-3.328 8.342-7.925 16.203-12.256 24.107-3.637 6.645-7.296 13.184-8.341 20.885-1.738 12.8 7.328 24.982 20.043 26.624 1.088 0.139 2.187 0.235 3.584 0.384-31.19 29.216-79.488 43.466-126.517 30.112-31.989-9.077-57.056-27.712-75.445-55.52 3.563-0.48 6.923-0.608 10.272-0.448 11.136 0.512 22.262 1.162 33.387 1.675 3.456 0.16 5.547-1.6 5.845-4.598 0.331-3.37-1.206-5.408-4.694-6.048-1.365-0.256-2.762-0.341-4.149-0.469-3.69-0.352-7.381-0.683-11.392-1.046 16.352-48.586 32.501-96.618 48.896-145.376zM258.784 211.445c-0.288 0-0.565 0-0.853 0-13.312-38.678-26.624-77.354-40.032-116.32 28.075-8.010 55.382-7.328 82.603 2.080-14.026 38.411-27.872 76.33-41.718 114.24zM133.685 278.154c-0.288-0.042-0.576-0.085-0.864-0.138-15.232-36.81-15.445-73.622 1.142-110.144 12.523-27.563 47.136-62.229 63.339-64.010-21.238 58.176-42.422 116.234-63.616 174.293zM374.358 287.072c1.526-22.635-1.75-37.28-7.339-53.408-14.016-40.438-28.096-80.864-42.134-121.291-0.406-1.163-0.704-2.358-1.046-3.541 0.256-0.139 0.522-0.277 0.779-0.416 29.834 18.325 50.454 44.053 60.32 77.834 10.197 34.944 6.336 68.672-10.582 100.822z" />
</font>
</defs>
</svg>
